#TITLE:LOW;
#SUBTITLE:;
#ARTIST:FLO-RIDA feat. T-PAIN;
#TITLETRANSLIT:;
#SUBTITLETRANSLIT:;
#ARTISTTRANSLIT:;
#CREDIT:;
#BANNER:low.png;
#BACKGROUND:low-bg.png;
#LYRICSPATH:;
#CDTITLE:;
#MUSIC:Flo Rida ft. T-Pain - Get Low.mp3;
#OFFSET:-0.060;
#SAMPLESTART:14.860;
#SAMPLELENGTH:12.000;
#SELECTABLE:YES;
#BPMS:0.000=128.000;
#STOPS:;
#BGCHANGES:;
// cache tags:
#FIRSTBEAT:16.000;
#LASTBEAT:223.000;
#SONGFILENAME:Songs/Music/Flo Rida ft. T-Pain - Get Low/Flo Rida ft. T-Pain - Get Low.sm;
#HASMUSIC:1;
#HASBANNER:1;
#MUSICLENGTH:111.725;
// end cache tags

//---------------dance-single - ----------------
#NOTES:
     dance-single:
     :
     Easy:
     3:
     0.280,0.274,0.358,0.000,0.000,179.000,40.000,0.000,0.000,0.000:
0000
0000
0000
0000
,
0000
0000
0000
0000
,
0000
0000
0000
0000
,
0000
0000
0000
0000
,
1000
0000
0000
0000
,
0100
0000
0000
0000
,
0010
0000
0000
0000
,
0001
1000
0100
0010
,
1000
1000
1001
1001
,
0001
0001
1001
0000
,
0001
0001
0100
0100
,
1000
1000
1001
0000
,
0000
0100
1100
0100
,
0101
0100
1100
0010
,
0100
0100
0100
0100
,
0100
0100
0100
0100
,
0001
0001
1001
1001
,
1000
1000
1001
0000
,
1000
1000
0100
0100
,
0001
0001
1001
0000
,
0000
0100
0101
0100
,
1100
0100
0101
0010
,
0100
0100
0100
0100
,
0100
0100
0100
0100
,
1000
0100
1000
0001
,
0100
0001
1000
1001
,
0001
0100
0001
1000
,
0100
1000
0001
1001
,
0100
1000
0100
0010
,
0001
0010
0100
1001
,
0010
0100
1000
0001
,
0100
0010
1000
1001
,
0100
0010
0101
0000
,
0010
0100
1100
0000
,
1000
0001
0101
0000
,
0001
1000
1100
0000
,
0010
0001
0101
0000
,
0010
1000
1100
0000
,
0010
0100
1001
0000
,
0100
0010
1001
0000
,
1000
1000
1001
1001
,
0001
0001
1001
0000
,
0001
0001
0100
0100
,
1000
1000
1001
0000
,
0000
0100
1100
0100
,
0101
0100
1100
0010
,
0100
0100
0100
0100
,
0100
0100
0100
0100
,
0001
0001
1001
1001
,
1000
1000
1001
0000
,
1000
1000
0100
0100
,
0001
0001
1001
0000
,
0000
0100
0101
0100
,
1100
0100
0101
0010
,
0100
0100
0100
0100
,
0100
0100
0100
0100
;

//---------------dance-single - Copied from----------------
#NOTES:
     dance-single:
     Copied from:
     Medium:
     5:
     0.340,0.349,0.367,0.090,0.000,215.000,41.000,10.000,0.000,0.000:
0000
0000
0000
0000
,
0000
0000
0000
0000
,
0000
0000
0000
0000
,
0000
0000
0000
0000
,
1000
0100
1000
1000
,
0001
0100
0001
0001
,
0100
1000
0100
0100
,
0100
0001
0100
0100
,
0010
0100
1001
1001
,
0100
0000
0010
1000
0001
0000
0000
0000
,
1001
0010
0100
1001
,
1000
0100
0010
0000
1001
0000
0000
0000
,
0000
0100
1000
0100
1000
0000
0000
0000
,
0000
0100
0001
0100
0001
0000
0010
0000
,
0100
0100
0100
0100
,
0110
0110
0110
0110
,
0010
0100
1001
1001
,
0100
0000
0010
0001
1000
0000
0000
0000
,
1001
0010
0100
1001
,
0001
0100
0010
0000
1001
0000
0000
0000
,
0000
0100
0001
0100
0001
0000
0000
0000
,
0000
0100
1000
0100
1000
0000
0010
0000
,
0100
0100
0100
0100
,
0110
0110
0110
0110
,
0000
0000
1000
0000
1000
0000
0100
0010
,
0200
0000
0301
0000
0001
0000
0100
0010
,
0200
0000
1300
0000
1000
0000
0001
1000
,
0002
0000
0013
0000
0100
0000
0010
1000
,
0200
0310
0001
1000
,
0100
0010
0010
0100
,
0100
0001
1000
0100
,
0100
1000
0001
0100
,
1001
0000
0001
1000
0200
0000
0310
0000
,
0100
0000
1000
0001
0200
0000
0310
0000
,
1000
0000
0001
0100
0020
0000
1030
0000
,
0100
0000
0010
0001
2000
0000
3001
0000
,
0100
0100
0110
0000
,
0001
0001
1001
0000
,
0010
0010
0110
0000
,
1000
1000
2002
3003
,
0010
0100
1001
1001
,
0100
0000
0010
1000
0001
0000
0000
0000
,
1001
0010
0100
1001
,
1000
0100
0010
0000
1001
0000
0000
0000
,
0000
0100
1000
0100
1000
0000
0000
0000
,
0000
0100
0001
0100
0001
0000
0010
0000
,
0100
0100
0100
0100
,
0110
0110
0110
0110
,
0010
0100
1001
1001
,
0100
0000
0010
0001
1000
0000
0000
0000
,
1001
0010
0100
1001
,
0001
0100
0010
0000
1001
0000
0000
0000
,
0000
0100
0001
0100
0001
0000
0000
0000
,
0000
0100
1000
0100
1000
0000
0010
0000
,
0100
0100
0100
0100
,
0110
0110
0110
0110
;

//---------------dance-single - Copied from----------------
#NOTES:
     dance-single:
     Copied from:
     Hard:
     8:
     0.522,0.499,0.582,0.143,0.139,327.000,65.000,16.000,0.000,0.000:
0000
0000
0000
0000
,
0000
0000
0000
0000
,
0000
0000
0000
0000
,
0000
0000
0000
0000
,
1000
0000
0000
0000
0000
0000
0001
0100
0001
0000
0100
0000
0100
0000
0100
0000
,
0010
0000
0010
0000
1000
0100
0010
0001
,
0100
0000
0000
0000
0000
0000
0010
0001
0010
0000
0001
0000
0001
0000
0001
0000
,
1000
0000
0000
0000
1100
0000
0000
0000
0101
0000
0001
0100
0001
0000
1000
0000
,
0110
0001
0100
0010
1100
0000
1100
0000
,
1001
0000
0001
0100
0020
0000
0000
0000
,
2030
0000
0000
3001
0100
0000
0101
0000
,
0001
1000
0010
0000
0220
0000
0000
0000
,
0330
0010
0001
0100
0101
0010
1000
0100
,
1100
0000
0001
0000
1000
0000
0100
0000
0110
0000
0000
0000
0001
1000
0001
0000
,
1100
1010
1100
1010
,
0101
0011
0101
0011
,
1000
0100
0010
0001
0100
0010
1000
0100
,
0010
0001
0100
0010
2000
0000
0000
0000
,
3002
0000
0103
1000
0001
0010
0100
1000
,
0001
0010
0100
1000
0200
0000
0000
0000
,
0000
0310
0100
0010
1001
0100
0010
0100
,
1001
0000
1000
0000
0001
0000
0100
0000
0110
0000
0000
0000
0001
0100
0001
0000
,
0011
0101
0011
0101
,
1010
1100
1010
1100
,
0001
0000
0100
0000
0010
0000
1000
0000
0100
0000
0010
0000
0001
0000
0001
0100
,
0000
0000
0010
0000
1000
0000
0001
0000
0010
0000
0100
0000
1000
0000
1000
0100
,
0000
0000
0010
0000
0001
0000
1000
0000
0010
0000
0100
0000
0001
0000
0001
1000
,
0000
0000
0001
0000
0100
0000
0010
0000
1000
0000
0001
0000
0100
0000
0100
0010
,
0000
0000
0100
0000
1000
0000
1000
0001
0000
0000
0100
0000
0010
0000
0010
0100
,
0000
0000
0001
0000
1000
0000
1000
0100
0000
0000
0010
0000
0010
0000
0100
0001
,
0000
0001
0001
1000
1000
0100
0010
0001
,
0100
0010
1000
0001
0100
0010
1000
0000
,
1001
0000
0010
0000
0100
0001
0100
0000
0010
0000
0000
0000
0100
0000
1000
0000
,
0100
0000
0010
0000
0001
0100
0001
0000
1000
0000
0000
0000
0100
0000
0010
0000
,
0100
0000
1000
0000
0001
1000
0001
0000
0100
0000
0000
0000
0010
0000
0100
0000
,
0010
0000
0001
0000
1000
0100
1000
0000
0001
0000
0000
0000
0100
0000
0010
0000
,
1000
0100
1000
0001
1000
0001
0100
0000
0000
0110
0000
0000
,
0001
0100
0001
1000
0001
0100
0010
0000
0000
0110
0000
0000
,
0010
1000
0010
0100
0001
0100
0010
0000
0000
1001
0000
0000
,
0110
1001
0220
0330
,
0110
0001
0100
0010
1100
0000
1100
0000
,
1001
0000
0001
0100
0020
0000
0000
0000
,
2030
0000
0000
3001
0100
0000
0101
0000
,
0001
1000
0010
0000
0220
0000
0000
0000
,
0330
0010
0001
0100
0101
0010
1000
0100
,
1100
0000
0001
0000
1000
0000
0100
0000
0110
0000
0000
0000
0001
1000
0001
0000
,
1100
1010
1100
1010
,
0101
0011
0101
0011
,
1000
0100
0010
0001
0100
0010
1000
0100
,
0010
0001
0100
0010
2000
0000
0000
0000
,
3002
0000
0103
1000
0001
0010
0100
1000
,
0001
0010
0100
1000
0200
0000
0000
0000
,
0000
0310
0100
0010
1001
0100
0010
0100
,
1001
0000
1000
0000
0001
0000
0100
0000
0110
0000
0000
0000
0001
0100
0001
0000
,
0011
0101
0011
0101
,
1010
1100
1010
1100
;
